**Réglé** Neo4all : grosse galère pour avoir le son...

Discussions sur les émulateurs tournants sur Dreamcast.

Modérateur : Team Modération

Répondre
Nathan03
nouveau venu
nouveau venu
Messages : 20
Inscription : 03 Jan 2010, 02:49

**Réglé** Neo4all : grosse galère pour avoir le son...

Message par Nathan03 » 03 Jan 2010, 15:29

Bonjour à tous,

Je galère à mort pour les jeux... Je ne comprends pas pourquoi je n'arrive pas à graver les jeux avec Alcohol. Que ce soit pour Real Bout ou SS 2, impossible d'avoir la musique, que des bruitages...

1. Je télécharge l'isos du jeu concerné que je dézippe dans un dossier, j'ai donc l'iso, les fichiers audio wav et le .cue.
2. Je grave avec alcohol en selectionnant le .cue
3. Le jeu n'est pas émulé correctement...

Franchement je sais plus quoi faire, merci d'avance pour votre aide :oops:

Avatar de l’utilisateur
edd
Administrateur
Administrateur
Messages : 6784
Inscription : 17 Avr 2005, 00:43
Localisation : Le Mans

Re: Neo4all : grosse galère pour avoir le son...

Message par edd » 03 Jan 2010, 15:55

Pour le jeu en question, peux-tu poster un extrait du fichier "cue" que tu utilises?
-|- edd -|- W&W player!
ImageImage
merci de privilégier le formulaire de contact aux MP s'il s'agit d'une demande/ajout concernant le site

Nathan03
nouveau venu
nouveau venu
Messages : 20
Inscription : 03 Jan 2010, 02:49

Re: Neo4all : grosse galère pour avoir le son...

Message par Nathan03 » 03 Jan 2010, 15:58

Ce sont exactement les fichiers sur le site de gametronik...

Avatar de l’utilisateur
edd
Administrateur
Administrateur
Messages : 6784
Inscription : 17 Avr 2005, 00:43
Localisation : Le Mans

Re: Neo4all : grosse galère pour avoir le son...

Message par edd » 03 Jan 2010, 17:47

Nathan03 a écrit :Ce sont exactement les fichiers sur le site de gametronik...
Peut-être mais je ne vais pas télécharger l'iso de gametronik pour regarder le fichier cue :-D

Dans le doute, tu as essayer avec Nero?
-|- edd -|- W&W player!
ImageImage
merci de privilégier le formulaire de contact aux MP s'il s'agit d'une demande/ajout concernant le site

Nathan03
nouveau venu
nouveau venu
Messages : 20
Inscription : 03 Jan 2010, 02:49

Re: Neo4all : grosse galère pour avoir le son...

Message par Nathan03 » 03 Jan 2010, 18:42

Sorry...
Et comment puis je en voir le contenu... ? Quand je double click dessus, c'est Roxio qui s'ouvre...

Avatar de l’utilisateur
edd
Administrateur
Administrateur
Messages : 6784
Inscription : 17 Avr 2005, 00:43
Localisation : Le Mans

Re: Neo4all : grosse galère pour avoir le son...

Message par edd » 03 Jan 2010, 20:37

Ouvre-le avec le "bloc-note" par exemple.
-|- edd -|- W&W player!
ImageImage
merci de privilégier le formulaire de contact aux MP s'il s'agit d'une demande/ajout concernant le site

Nathan03
nouveau venu
nouveau venu
Messages : 20
Inscription : 03 Jan 2010, 02:49

Re: Neo4all : grosse galère pour avoir le son...

Message par Nathan03 » 04 Jan 2010, 00:52

Effectivement...

Cela donne ça :

CATALOG 4964808501052
FILE "Real Bout Fatal Fury 2 (1998-07-23)(SNK)(Track 01 of 35)[!][NGCD-240].iso" BINARY
TRACK 01 MODE1/2048
INDEX 01 00:00:00
FILE "Real Bout Fatal Fury 2 (1998-07-23)(SNK)(Track 02 of 35)[!][NGCD-240].wav" WAVE
TRACK 02 AUDIO
PREGAP 00:03:00
INDEX 01 00:00:00
FILE "Real Bout Fatal Fury 2 (1998-07-23)(SNK)(Track 03 of 35)[!][NGCD-240].wav" WAVE
TRACK 03 AUDIO
INDEX 00 00:00:00
INDEX 01 00:02:00
FILE "Real Bout Fatal Fury 2 (1998-07-23)(SNK)(Track 04 of 35)[!][NGCD-240].wav" WAVE
TRACK 04 AUDIO
INDEX 00 00:00:00
INDEX 01 00:02:00
FILE "Real Bout Fatal Fury 2 (1998-07-23)(SNK)(Track 05 of 35)[!][NGCD-240].wav" WAVE
TRACK 05 AUDIO
INDEX 00 00:00:00
INDEX 01 00:02:00
FILE "Real Bout Fatal Fury 2 (1998-07-23)(SNK)(Track 06 of 35)[!][NGCD-240].wav" WAVE
TRACK 06 AUDIO
INDEX 00 00:00:00
INDEX 01 00:02:00
FILE "Real Bout Fatal Fury 2 (1998-07-23)(SNK)(Track 07 of 35)[!][NGCD-240].wav" WAVE
TRACK 07 AUDIO
INDEX 00 00:00:00
INDEX 01 00:02:00
FILE "Real Bout Fatal Fury 2 (1998-07-23)(SNK)(Track 08 of 35)[!][NGCD-240].wav" WAVE
TRACK 08 AUDIO
INDEX 00 00:00:00
INDEX 01 00:02:00
FILE "Real Bout Fatal Fury 2 (1998-07-23)(SNK)(Track 09 of 35)[!][NGCD-240].wav" WAVE
TRACK 09 AUDIO
INDEX 00 00:00:00
INDEX 01 00:02:00
FILE "Real Bout Fatal Fury 2 (1998-07-23)(SNK)(Track 10 of 35)[!][NGCD-240].wav" WAVE
TRACK 10 AUDIO
INDEX 00 00:00:00
INDEX 01 00:02:00
FILE "Real Bout Fatal Fury 2 (1998-07-23)(SNK)(Track 11 of 35)[!][NGCD-240].wav" WAVE
TRACK 11 AUDIO
INDEX 00 00:00:00
INDEX 01 00:02:00
FILE "Real Bout Fatal Fury 2 (1998-07-23)(SNK)(Track 12 of 35)[!][NGCD-240].wav" WAVE
TRACK 12 AUDIO
INDEX 00 00:00:00
INDEX 01 00:02:00
FILE "Real Bout Fatal Fury 2 (1998-07-23)(SNK)(Track 13 of 35)[!][NGCD-240].wav" WAVE
TRACK 13 AUDIO
INDEX 00 00:00:00
INDEX 01 00:02:00
FILE "Real Bout Fatal Fury 2 (1998-07-23)(SNK)(Track 14 of 35)[!][NGCD-240].wav" WAVE
TRACK 14 AUDIO
INDEX 00 00:00:00
INDEX 01 00:02:00
FILE "Real Bout Fatal Fury 2 (1998-07-23)(SNK)(Track 15 of 35)[!][NGCD-240].wav" WAVE
TRACK 15 AUDIO
INDEX 00 00:00:00
INDEX 01 00:02:00
FILE "Real Bout Fatal Fury 2 (1998-07-23)(SNK)(Track 16 of 35)[!][NGCD-240].wav" WAVE
TRACK 16 AUDIO
INDEX 00 00:00:00
INDEX 01 00:02:00
FILE "Real Bout Fatal Fury 2 (1998-07-23)(SNK)(Track 17 of 35)[!][NGCD-240].wav" WAVE
TRACK 17 AUDIO
INDEX 00 00:00:00
INDEX 01 00:02:00
FILE "Real Bout Fatal Fury 2 (1998-07-23)(SNK)(Track 18 of 35)[!][NGCD-240].wav" WAVE
TRACK 18 AUDIO
INDEX 00 00:00:00
INDEX 01 00:02:00
FILE "Real Bout Fatal Fury 2 (1998-07-23)(SNK)(Track 19 of 35)[!][NGCD-240].wav" WAVE
TRACK 19 AUDIO
INDEX 00 00:00:00
INDEX 01 00:01:74
FILE "Real Bout Fatal Fury 2 (1998-07-23)(SNK)(Track 20 of 35)[!][NGCD-240].wav" WAVE
TRACK 20 AUDIO
INDEX 00 00:00:00
INDEX 01 00:02:00
FILE "Real Bout Fatal Fury 2 (1998-07-23)(SNK)(Track 21 of 35)[!][NGCD-240].wav" WAVE
TRACK 21 AUDIO
INDEX 00 00:00:00
INDEX 01 00:02:00
FILE "Real Bout Fatal Fury 2 (1998-07-23)(SNK)(Track 22 of 35)[!][NGCD-240].wav" WAVE
TRACK 22 AUDIO
INDEX 00 00:00:00
INDEX 01 00:02:00
FILE "Real Bout Fatal Fury 2 (1998-07-23)(SNK)(Track 23 of 35)[!][NGCD-240].wav" WAVE
TRACK 23 AUDIO
INDEX 00 00:00:00
INDEX 01 00:02:00
FILE "Real Bout Fatal Fury 2 (1998-07-23)(SNK)(Track 24 of 35)[!][NGCD-240].wav" WAVE
TRACK 24 AUDIO
INDEX 00 00:00:00
INDEX 01 00:02:00
FILE "Real Bout Fatal Fury 2 (1998-07-23)(SNK)(Track 25 of 35)[!][NGCD-240].wav" WAVE
TRACK 25 AUDIO
INDEX 00 00:00:00
INDEX 01 00:02:00
FILE "Real Bout Fatal Fury 2 (1998-07-23)(SNK)(Track 26 of 35)[!][NGCD-240].wav" WAVE
TRACK 26 AUDIO
INDEX 00 00:00:00
INDEX 01 00:02:00
FILE "Real Bout Fatal Fury 2 (1998-07-23)(SNK)(Track 27 of 35)[!][NGCD-240].wav" WAVE
TRACK 27 AUDIO
INDEX 00 00:00:00
INDEX 01 00:02:00
FILE "Real Bout Fatal Fury 2 (1998-07-23)(SNK)(Track 28 of 35)[!][NGCD-240].wav" WAVE
TRACK 28 AUDIO
INDEX 00 00:00:00
INDEX 01 00:02:00
FILE "Real Bout Fatal Fury 2 (1998-07-23)(SNK)(Track 29 of 35)[!][NGCD-240].wav" WAVE
TRACK 29 AUDIO
INDEX 00 00:00:00
INDEX 01 00:02:00
FILE "Real Bout Fatal Fury 2 (1998-07-23)(SNK)(Track 30 of 35)[!][NGCD-240].wav" WAVE
TRACK 30 AUDIO
INDEX 00 00:00:00
INDEX 01 00:02:00
FILE "Real Bout Fatal Fury 2 (1998-07-23)(SNK)(Track 31 of 35)[!][NGCD-240].wav" WAVE
TRACK 31 AUDIO
INDEX 00 00:00:00
INDEX 01 00:02:00
FILE "Real Bout Fatal Fury 2 (1998-07-23)(SNK)(Track 32 of 35)[!][NGCD-240].wav" WAVE
TRACK 32 AUDIO
INDEX 00 00:00:00
INDEX 01 00:02:00
FILE "Real Bout Fatal Fury 2 (1998-07-23)(SNK)(Track 33 of 35)[!][NGCD-240].wav" WAVE
TRACK 33 AUDIO
INDEX 00 00:00:00
INDEX 01 00:02:00
FILE "Real Bout Fatal Fury 2 (1998-07-23)(SNK)(Track 34 of 35)[!][NGCD-240].wav" WAVE
TRACK 34 AUDIO
INDEX 00 00:00:00
INDEX 01 00:02:00
FILE "Real Bout Fatal Fury 2 (1998-07-23)(SNK)(Track 35 of 35)[!][NGCD-240].wav" WAVE
TRACK 35 AUDIO
INDEX 00 00:00:00
INDEX 01 00:02:00

Avatar de l’utilisateur
edd
Administrateur
Administrateur
Messages : 6784
Inscription : 17 Avr 2005, 00:43
Localisation : Le Mans

Re: Neo4all : grosse galère pour avoir le son...

Message par edd » 04 Jan 2010, 09:47

C'est cohérent. Après faut voir que le nommage des fichiers est très particulier (long, avec des espaces, des crochets, des points d'exclamation...).

Personnelement, j'utilise Nero pour les cue/iso/wav. Essaie un autre logiciel de gravure. Tu peux essayer sur CD-RW et tester sur un émulateur NGCD pour PC. Ainsi quand c'est ok, tu peux faire la même chose sur un CD-R.

Tu peux utiliser NeoRaine (http://rainemu.swishparty.co.uk/html/do ... raine.html), je viens de verif, le zics passent nickelles depuis un CD.
NE.jpg
NeoRaine
NE.jpg (70.29 Kio) Consulté 1559 fois
Quand tu mets un de tes cds (ratés selon toi) dans une chaine HiFi ou un Discman, tu as du son?
-|- edd -|- W&W player!
ImageImage
merci de privilégier le formulaire de contact aux MP s'il s'agit d'une demande/ajout concernant le site

Nathan03
nouveau venu
nouveau venu
Messages : 20
Inscription : 03 Jan 2010, 02:49

Re: Neo4all : grosse galère pour avoir le son...

Message par Nathan03 » 04 Jan 2010, 12:35

Effectivement, je n'ai pas de son quand je mets le cd dans ma chaine...
Est ce qu'il faut que je grave très lentement ... ?
Faudrait-il aussi que je renomme le fichier Wav... ?

Effectivement, je vais arrêter de foutre en l'air des cds et faire l'essai avec des cdrw.
Pour Nero, peux tu m'indiquer quelle démarche suivre... ?

Avatar de l’utilisateur
edd
Administrateur
Administrateur
Messages : 6784
Inscription : 17 Avr 2005, 00:43
Localisation : Le Mans

Re: Neo4all : grosse galère pour avoir le son...

Message par edd » 04 Jan 2010, 17:28

Les WAV doivent être nommés comme indiqué dans le CUE.

Pour Nero, tu trouveras comment lancer la gravure d'une image à la fin de ce tuto: http://dreamagain.free.fr/index.php/tut ... de-neo4all
-|- edd -|- W&W player!
ImageImage
merci de privilégier le formulaire de contact aux MP s'il s'agit d'une demande/ajout concernant le site

Nathan03
nouveau venu
nouveau venu
Messages : 20
Inscription : 03 Jan 2010, 02:49

Re: Neo4all : grosse galère pour avoir le son...

Message par Nathan03 » 07 Jan 2010, 00:28

Problème résolu merci aux intervenants ! :D

Répondre

Qui est en ligne ?

Utilisateurs parcourant ce forum : Aucun utilisateur inscrit et 1 invité